Кодек для инфографики

Все, что не запрещает конституция РФ )
Canonical Link

Автор темы
buyden
Нуб
Нуб
Сообщения: 3
Зарегистрирован: 25 окт 2018 18:58

Кодек для инфографики

Сообщение buyden » 18 июн 2019 08:36

Здравствуйте! Прошу помощи
Прислали образец инфографики (цифровая информация с небольшой анимацией) в следующем формате:
данные
Общее
Формат : AVI
Формат/Информация : Audio Video Interleave
Размер файла : 257 Мбайт
Продолжительность : 29 м. 59 с.
Общий поток : 1196 Кбит/сек
Библиотека кодирования : VirtualDub build 35491/release

Видео
Идентификатор : 0
Формат : AVC
Формат/Информация : Advanced Video Codec
Профиль формата : Main@L4.1
Настройки формата : CABAC / 4 Ref Frames
Параметр CABAC формата : Да
Параметр RefFrames формата : 4 кадра
Идентификатор кодека : H264
Продолжительность : 29 м. 59 с.
Битрейт : 1154 Кбит/сек
Ширина : 1920 пикселей
Высота : 1080 пикселей
Соотношение сторон : 16:9
Частота кадров : 29,970 (30000/1001) кадров/сек
Цветовое пространство : YUV
Субдискретизация насыщенности : 4:2:0
Битовая глубина : 8 бит
Тип развёртки : Прогрессивная
Бит/(Пиксели*Кадры) : 0.019
Размер потока : 248 Мбайт (97%)
Библиотека кодирования : x264 core 152 r2851bm ba24899
Настройки программы : cabac=1 / ref=4 / deblock=1:1:1 / analyse=0x1:0x111 / me=hex / subme=8 / psy=1 / psy_rd=0.40:0.00 / mixed_ref=1 / me_range=16 / chroma_me=1 / trellis=2 / 8x8dct=0 / cqm=0 / deadzone=21,11 / fast_pskip=1 / chroma_qp_offset=-2 / threads=4 / lookahead_threads=4 / sliced_threads=1 / slices=4 / nr=0 / decimate=1 / interlaced=0 / bluray_compat=0 / constrained_intra=0 / bframes=0 / weightp=2 / keyint=250 / keyint_min=25 / scenecut=40 / intra_refresh=0 / rc=cqp / mbtree=0 / qp=20 / ip_ratio=1.40 / aq=0

Аудио
Идентификатор : 1
Формат : ADPCM
Идентификатор кодека : 2
Продолжительность : 29 м. 58 с.
Вид битрейта : Постоянный
Битрейт : 32,8 Кбит/сек
Каналы : 1 канал
Частота : 8000 Гц
Битовая глубина : 4 бит
Размер потока : 7,02 Мбайт (3%)
Продолжительность промежутка : 63 мс. (1,88 видеокадра)
Время предзагрузки промежутка : 500 мс.

Два вопроса:
1. Как импортировать этот файл в Adobe (установка зоопарка кодеков не дало эффекта)? Сейчас работаю после конвертации через Movavi.
2. Как экспортировать в видео в таком суперском качестве и столь низком битрейте? На h264 я выставляю 5Мб/с и профиль Hight чтобы получить идентичное качество.

Пример
https://cloud.mail.ru/stock/VcQynQdv8epUHt55GQ2WeR1P




Аватара пользователя

aeplug
Санта
Санта
Сообщения: 2158
Зарегистрирован: 18 мар 2016 23:20
Откуда: С Ютуба
Благодарил (а): 9 раз
Поблагодарили: 233 раза

Сообщение aeplug » 18 июн 2019 16:44

buyden писал(а):Источник цитаты этот файл в Adobe

У меня чет все зависло на файле, видать как-то кастомно кодировали. Обычно-то Адоб открывает mp4, хотя это и avi. У меня вообще были сомнения по поводу нормальной работы такого сочетания avc внутри avi.
buyden писал(а):Источник цитаты в таком суперском качестве и столь низком битрейте?

Не вижу ничего ни суперского, ни необычного. Там анимации кот наплакал. Тут и 3,5 много. С запасом делали.
Видео уроки для After Effects http://www.youtube.com/AEPlug
Платные консультации по работе в программах


Автор темы
buyden
Нуб
Нуб
Сообщения: 3
Зарегистрирован: 25 окт 2018 18:58

Сообщение buyden » 18 июн 2019 20:43

Понял, спасибо. Тогда не буду искать способ повторить 1 к 1.


Вернуться в «Болталка»

Кто сейчас на конференции

Сейчас этот форум просматривают: CommonCrawl [Bot]