Текущие версии программ: After Effects CC 2017 v14.0.1  Premiere Pro CC 2017 v11.0.1

не стесняйтесь создавать новые темы для новых вопросов

Проблема с тормозами и лагами при рендере видео.

Монтируем видео
Canonical Link

Автор темы
Евгений
Нуб
Нуб
Сообщения: 7
Зарегистрирован: 14 июл 2016 10:44

Проблема с тормозами и лагами при рендере видео.

Сообщение Евгений » 14 июл 2016 10:52

Привет всем.Записываю видео с помощью ShadowPlay,монтирую в Adobe Premiere Pro 2015 CC, фикшу проблемы с рассинхроном аудио и видео при помощи HandBrake,но с недавних пор появились зависания,тормоза,лаги при монтаже - невозможно редактировать видео. Ничего не менял в настройках премьера, ShadowPlay, HandBrake, но провисания присутствуют только в тех видео,которые прошли хэндбрейк и только в них. Изменить программу для захвата экрана никак нельзя.
Кодеки:
Изображение
Настройки аудиооборудования:
Изображение
Информация о трёх видеороликах: первое - не имело провисаний до того,как появились эти проблемы(но теперь на всех таких видео есть лаги), второе - нашёл провисания на нём, третье - видео без лагов,но не прошедшее HandBrake, в котором рассинхрон звука и видео.
Изображение
Уже во всех группах написал,никто помочь не может :(





Автор темы
Евгений
Нуб
Нуб
Сообщения: 7
Зарегистрирован: 14 июл 2016 10:44

Сообщение Евгений » 16 июл 2016 13:48

aeplug писал(а):Источник цитаты что "это"?

https://psv4.vk.me/c415120/u42683353/do ... 9LhYuHl78A
Вот это.(кидаю третий раз) наверное не отображалось.
aeplug писал(а):Источник цитаты На рабочих машинах все авто-обновления выключать надо!

Там "если не ошибаюсь" и да,я ошибался,там только проверка обновлений автоматически,потом предлагают обновить или нет.
aeplug писал(а):Источник цитаты другой формат в HandBrake с другими настройками.

Я пробовал. Ставил разные настройки,менял на Mpeg4, H264, H265 и когда поставил последний,импортировал в премьер,то мне написали это: "для использования этой функции должен быть установлен кодек HEVC. При нажатии ОК он будет установлен и включён для немедленного использования." Я не нажимал ОК,просто вышел из программы,сделать это? Вы писали,что не надо его использовать.
aeplug писал(а):Источник цитаты прежде чем сбрасывать настройки премьера и переставлять винду

Это уже крайние варианты? Я ведь ничем не рискую,если сброшу настройки,наверное,но поможет ли это

Аватара пользователя

aeplug
Санта
Санта
Сообщения: 850
Зарегистрирован: 18 мар 2016 23:20
Откуда: С Ютуба
Благодарил (а): 2 раза
Поблагодарили: 82 раза

Сообщение aeplug » 16 июл 2016 17:35

Евгений писал(а):Источник цитаты кидаю третий раз

Изображение
Евгений писал(а):Источник цитаты если сброшу настройки

Попробовать стоит. Переименуй папки:
c:\Users\***\AppData\Roaming\Adobe\Premiere Pro\версия
и в "Моих документах"
\Adobe\Premiere Pro\версия

Кстати, а ты после Adobe Media Encoder файлы не проверял?
Видео уроки для After Effects http://www.youtube.com/AEPlug
Платные консультации по работе в программах


Автор темы
Евгений
Нуб
Нуб
Сообщения: 7
Зарегистрирован: 14 июл 2016 10:44

Сообщение Евгений » 17 июл 2016 12:19

Изображение
Ну должно уже отобразиться
aeplug писал(а):Источник цитаты Кстати, а ты после Adobe Media Encoder файлы не проверял?

Проверил,всё хорошо теперь) Там только размер увеличивается в раза два,но это ладно. Это последний вариант был,кроме сноса винды?
Человеческое вам спасибо)Огромное. Были бы деньги -- заплатил бы.

Аватара пользователя

aeplug
Санта
Санта
Сообщения: 850
Зарегистрирован: 18 мар 2016 23:20
Откуда: С Ютуба
Благодарил (а): 2 раза
Поблагодарили: 82 раза

Сообщение aeplug » 17 июл 2016 18:46

Евгений писал(а):Источник цитаты Там только размер увеличивается в раза два

Ну это все зависит от настроек кодирования - битрейт и прочее.
Качество при кодировании видео, рекомендуемые кодеки, битрейт и другие параметры чтобы сжимать видео - YouTube
https://www.youtube.com/watch?v=ZbZ__qs3AcM
Вместо скринщотов надо использовать программу MediaInfo в текстовом виде. Например в плеер MPC-HC (которым я пользуюсь) она встроена в обычные свойства файла.
Вот так должна выглядеть информация о медиа-файле :)
General
Complete name : D:\DOWNLOAD\Trigger Tutorial.mp4
Format : MPEG-4
Format profile : Base Media
Codec ID : isom
File size : 31.3 MiB
Duration : 9mn 42s
Overall bit rate : 451 Kbps
Writing application : Lavf56.25.101

Video
ID : 1
Format : AVC
Format/Info : Advanced Video Codec
Format profile : High@L4.0
Format settings, CABAC : Yes
Format settings, ReFrames : 3 frames
Codec ID : avc1
Codec ID/Info : Advanced Video Coding
Duration : 9mn 42s
Bit rate : 320 Kbps
Width : 1 920 pixels
Height : 1 080 pixels
Display aspect ratio : 16:9
Frame rate mode : Constant
Frame rate : 24.000 fps
Color space : YUV
Chroma subsampling : 4:2:0
Bit depth : 8 bits
Scan type : Progressive
Bits/(Pixel*Frame) : 0.006
Stream size : 22.2 MiB (71%)
Color primaries : BT.709
Transfer characteristics : BT.709
Matrix coefficients : BT.709

Audio
ID : 2
Format : AAC
Format/Info : Advanced Audio Codec
Format profile : LC
Codec ID : 40
Duration : 9mn 42s
Bit rate mode : Constant
Bit rate : 126 Kbps
Channel(s) : 2 channels
Channel positions : Front: L R
Sampling rate : 44.1 KHz
Compression mode : Lossy
Stream size : 8.72 MiB (28%)


В твоем случае надо смотреть на Frame rate mode : Constant. Не путать с битрейтом!
Адоб не научили свои программы нормально работать с переменной частотой кадров. Отсюда и рассинхронизация звука и видео при монтаже, хотя в обычном плеере все будет играться нормально.
Как подружить Bandicam и Adobe Premiere навсегда! Лечим рассинхрон звука и видео
https://www.youtube.com/watch?v=C9a9I_T2_qc
Видео уроки для After Effects http://www.youtube.com/AEPlug
Платные консультации по работе в программах


  • Похожие темы
    Ответы
    Просмотры
    Последнее сообщение
  • Проблема с цветом при рендере
    Akira » 28 авг 2016 15:44 » в форуме Adobe After Effects
    3
    243
    aeplug
    28 авг 2016 20:14
  • Ошибка при рендере 4K H264 Вложения
    atatat » 07 окт 2016 14:30 » в форуме Adobe After Effects
    13
    365
    aeplug
    08 окт 2016 12:31
  • Ошибка при рендере, прошу помочь знатоков
    stillmighty » 25 окт 2016 19:02 » в форуме Adobe Premiere Pro
    3
    50
    aeplug
    26 окт 2016 16:58
  • Ошибка при рендере на определенный диск (Rendering error while writing to file (-1610153459)) Вложения
    atatat » 02 ноя 2016 02:55 » в форуме Adobe After Effects
    4
    67
    aeplug
    02 ноя 2016 17:14
  • проблема с импортом видео Вложения
    Елена » 12 май 2016 17:38 » в форуме Adobe After Effects
    1
    66
    aeplug
    12 май 2016 18:02

Вернуться в «Adobe Premiere Pro»

Кто сейчас на конференции

Сейчас этот форум просматривают: нет зарегистрированных пользователей