Нужна помощь по импорту видео в PRpro и AE - кодек HEVC

  • Похожие темы
    Ответы
    Просмотры
    Последнее сообщение
Монтируем видео
Canonical Link
Аватара пользователя

Mefist
Не Нуб
Не Нуб
Сообщения: 11
Зарегистрирован: 24 дек 2018 18:41

Сообщение Mefist » 27 апр 2020 23:05

Снял сейчас видео в H.265 в контейнере mp4 и не смог импортировать в Premiere Pro 14.0.4 странно, в DaVinci импортировалось. Переименовал в avi, то импортировалось, но звук не распознался, как быть?

Тех. Данные
Общее
Полное имя : C:\Users\UserO\Downloads\123\2020-04-27 19-13-24.MP4
Формат : MPEG-4
Профиль формата : Base Media / Version 2
Идентификатор кодека : mp42 (isom/mp42)
Размер файла : 44,3 Мбайт
Продолжительность : 13 с. 148 мс.
Общий поток : 28,2 Мбит/сек
Дата кодирования : UTC 2020-04-27 16:13:24
Дата пометки : UTC 2020-04-27 16:13:24
xyz : +57.6561+039.9562/
com.android.version : 10

Видео
Идентификатор : 1
Формат : HEVC
Формат/Информация : High Efficiency Video Coding
Профиль формата : Main@L5@Main
Идентификатор кодека : hvc1
Идентификатор кодека/Информация : High Efficiency Video Coding
Продолжительность : 13 с. 148 мс.
Битрейт : 27,6 Мбит/сек
Ширина : 3 840 пикселей
Высота : 2 160 пикселей
Соотношение сторон : 16:9
Режим частоты кадров : Переменный
Частота кадров : 29,662 кадров/сек
Минимальная частота кадров : 5,365 кадров/сек
Максимальная частота кадров : 40,071 кадров/сек
Цветовое пространство : YUV
Субдискретизация насыщенности : 4:2:0
Битовая глубина : 8 бит
Бит/(Пиксели*Кадры) : 0.112
Размер потока : 43,2 Мбайт (98%)
Заголовок : VideoHandle
Язык : English
Дата кодирования : UTC 2020-04-27 16:13:24
Дата пометки : UTC 2020-04-27 16:13:24
Цветовой диапазон : Limited
Основные цвета : BT.601 PAL
Характеристики трансфера : BT.709
Коэффициенты матрицы : BT.601
mdhd_Duration : 13148
Codec configuration box : hvcC

Аудио
Идентификатор : 2
Формат : AAC LC
Формат/Информация : Advanced Audio Codec Low Complexity
Идентификатор кодека : mp4a-40-2
Продолжительность : 13 с. 141 мс.
Вид битрейта : Постоянный
Битрейт : 192 Кбит/сек
Каналы : 2 канала
Channel layout : L R
Частота : 48,0 КГц
Частота кадров : 46,875 кадров/сек (1024 SPF)
Метод сжатия : С потерями
Размер потока : 309 Кбайт (1%)
Заголовок : SoundHandle
Язык : English
Дата кодирования : UTC 2020-04-27 16:13:24
Дата пометки : UTC 2020-04-27 16:13:24




Аватара пользователя

aeplug
Санта
Санта
Сообщения: 2471
Зарегистрирован: 18 мар 2016 23:20
Откуда: С Ютуба
Благодарил (а): 16 раз
Поблагодарили: 251 раз

Сообщение aeplug » 28 апр 2020 13:27

Ну говорят, что в 2020 пираты не сломали 265.
Видео уроки для After Effects http://www.youtube.com/AEPlug
Платные консультации по работе в программах

Аватара пользователя

Mefist
Не Нуб
Не Нуб
Сообщения: 11
Зарегистрирован: 24 дек 2018 18:41

Сообщение Mefist » 28 апр 2020 14:38

установил триал версию и там то же не работает, может проблема в том что кривая поддержка h.265? могу прислать файл, вдруг у вас получится, а то у меня не выходит(((

Аватара пользователя

aeplug
Санта
Санта
Сообщения: 2471
Зарегистрирован: 18 мар 2016 23:20
Откуда: С Ютуба
Благодарил (а): 16 раз
Поблагодарили: 251 раз

Сообщение aeplug » 28 апр 2020 14:44

Ну пришли - проверю, однако у меня только 2019 Premiere Pro, да и все равно 265 плохо работает в Premiere Pro.
Видео уроки для After Effects http://www.youtube.com/AEPlug
Платные консультации по работе в программах

Аватара пользователя

Mefist
Не Нуб
Не Нуб
Сообщения: 11
Зарегистрирован: 24 дек 2018 18:41

Сообщение Mefist » 28 апр 2020 14:52

https://dropmefiles.com/cZTbh

удивительно что Premire Pro не съел, а DaVinci съел

Аватара пользователя

aeplug
Санта
Санта
Сообщения: 2471
Зарегистрирован: 18 мар 2016 23:20
Откуда: С Ютуба
Благодарил (а): 16 раз
Поблагодарили: 251 раз

Сообщение aeplug » 28 апр 2020 15:01

Ничего удивительного - это же две совершенно разные программы от разных авторов.
У меня открылось в 2019
Изображение
Видео уроки для After Effects http://www.youtube.com/AEPlug
Платные консультации по работе в программах

Аватара пользователя

Mefist
Не Нуб
Не Нуб
Сообщения: 11
Зарегистрирован: 24 дек 2018 18:41

Сообщение Mefist » 28 апр 2020 15:21

Спасибо большое за помощь.

Установил 2019 (13.1.5) и всё отлично импортировалось

Провёл эксперимент. Установил последнюю на данный момент версию Premiere Pro 2020 (14.1) официальным методом через Creative Сloud, не активировал, запустил 7 дневную пробную версию и в ней то же не работает импорт h.265.

Аватара пользователя

aeplug
Санта
Санта
Сообщения: 2471
Зарегистрирован: 18 мар 2016 23:20
Откуда: С Ютуба
Благодарил (а): 16 раз
Поблагодарили: 251 раз

Сообщение aeplug » 29 апр 2020 10:59

Ну что сказать, приветы отправляем в Индию. Говорят, теперь они уже пару лет занимаются разработкой программ. Вот в After Effects сломали h264 недавно.
Видео уроки для After Effects http://www.youtube.com/AEPlug
Платные консультации по работе в программах


Вернуться в «Adobe Premiere Pro»

Кто сейчас на конференции

Сейчас этот форум просматривают: нет зарегистрированных пользователей