Популярные темы Важные темы

Рассинхрон звука ПОСЛЕ рендера в Premiere Pro

  • Похожие темы
    Ответы
    Просмотры
    Последнее сообщение
Монтируем видео
Canonical Link
Аватара пользователя

Автор темы
sivencov
Нуб
Нуб
Сообщения: 4
Зарегистрирован: 19 дек 2016 23:20

Рассинхрон звука ПОСЛЕ рендера в Premiere Pro

Сообщение sivencov » 19 дек 2016 23:26

Помогите разобраться, ситуация - после просчета видео, смещается звук в определенной точке скачком на секунды 2! ломал голову, выявил что вКМ плеере звук смещается при просмотре, а в виндовс медиа плеере НЕТ ! )) НО если это видео закинуть в премьер, то в нем тоже имеется рассинхрон( в чем подвох? блин у меня все чаще и чаще это происходит(




Аватара пользователя

aeplug
Санта
Санта
Сообщения: 2698
Зарегистрирован: 18 мар 2016 23:20
Откуда: С Ютуба
Благодарил (а): 18 раз
Поблагодарили: 272 раза

Сообщение aeplug » 20 дек 2016 00:14

Какой формат? Какие кодеки? Приложи проблемный файл с указанием места рассинхрона.
Видео уроки для After Effects http://www.youtube.com/AEPlug
Платные консультации по работе в программах

Аватара пользователя

Автор темы
sivencov
Нуб
Нуб
Сообщения: 4
Зарегистрирован: 19 дек 2016 23:20

Сообщение sivencov » 20 дек 2016 11:57

исходники в *.mov (с зеркалки, 25fps pal) - считаю в h264 (mp4 25fps pal) . Рассинхрон получается всегда в разных местах, и бывает если таймлайн пересчитать несколько раз, то в просчитаном материале наблюдается сдвиг не в одном и том же месте, всегда по-разному (мистика ))

Аватара пользователя

aeplug
Санта
Санта
Сообщения: 2698
Зарегистрирован: 18 мар 2016 23:20
Откуда: С Ютуба
Благодарил (а): 18 раз
Поблагодарили: 272 раза

Сообщение aeplug » 20 дек 2016 14:09

Сколько лет уже работаю с "*.mov с зеркалки" никаких проблем не было. Выложи проблемный файл то.
Видео уроки для After Effects http://www.youtube.com/AEPlug
Платные консультации по работе в программах

Аватара пользователя

Автор темы
sivencov
Нуб
Нуб
Сообщения: 4
Зарегистрирован: 19 дек 2016 23:20

Сообщение sivencov » 20 дек 2016 21:15

короче просчитанный файл не стал заливать, весит много ..вобщем удалил KMpleer, почистил реестр, перезагрузился. В системе получается из сторонних плееров у меня сейчас только квиктайм, и что ты думаешь? все нормально, и в премьер закинул этот просчитанный видос- сдвига нет, виндовс медиа проигрывает без сдвига. Выходит глючный КМ был (точнее кодеки которые он с собой ставит) ?

Аватара пользователя

aeplug
Санта
Санта
Сообщения: 2698
Зарегистрирован: 18 мар 2016 23:20
Откуда: С Ютуба
Благодарил (а): 18 раз
Поблагодарили: 272 раза

Сообщение aeplug » 20 дек 2016 21:18

sivencov писал(а):Источник цитаты почистил реестр,

от чего?
sivencov писал(а):Источник цитаты кодеки которые он с собой ставит

насколько я знаю его и ставить не надо, он ничего не добавляет все внутри себя и для себе же. Можно "портабле" использовать.
Видео уроки для After Effects http://www.youtube.com/AEPlug
Платные консультации по работе в программах

Аватара пользователя

Автор темы
sivencov
Нуб
Нуб
Сообщения: 4
Зарегистрирован: 19 дек 2016 23:20

Сообщение sivencov » 20 дек 2016 21:25

реестр просто клинером прогнал (для большей уверенности что следов кма не останется ))
а Кодеки он разве не ставит при установке? только свои для просмотра? в чем тогда беда была ..короче говоря, если опять это приключится будем разбираться.

п.с. вот делал я предыдущую свадьбу, и заметил что такая проблема возникала только при просчете длинных по времени файлов, но тогда я не замарачивался, нашел место сдвига и подправил при финальном рендере.


YakimAN
Нуб
Нуб
Сообщения: 4
Зарегистрирован: 19 мар 2021 13:26
Благодарил (а): 2 раза

Сообщение YakimAN » 19 мар 2021 13:35

Добрый день! Тема очень старая, но к вопросу вернусь, попался сериал решил его в один файл собрать, в адобе после экспорта в любой формат смещается звук. Пробовал пропустить через видеоконвертор чтобы сделать стабильные 29 кадров но и там тоже звук смещается.. Что за ерунда не могу понять. В свойствах файла какой то прыгающий фпс.
Video #1
ID : 1
Format : AVC
Format/Info : Advanced Video Codec
Format profile : High@L4
Format settings : CABAC / 4 Ref Frames
Format settings, CABAC : Yes
Format settings, Reference frames : 4 frames
Codec ID : avc1
Codec ID/Info : Advanced Video Coding
Duration : 17 min 4 s
Bit rate mode : Variable
Bit rate : 4 034 kb/s
Maximum bit rate : 4 500 kb/s
Width : 1 920 pixels
Height : 1 080 pixels
Display aspect ratio : 16:9
Frame rate mode : Variable
Frame rate : 29.838 FPS
Minimum frame rate : 15.030 FPS
Maximum frame rate : 30.000 FPS
Original frame rate : 30.000 FPS
Color space : YUV
Chroma subsampling : 4:2:0
Bit depth : 8 bits
Scan type : Progressive
Bits/(Pixel*Frame) : 0.065
Stream size : 493 MiB (95%)
Codec configuration box : avcC
Audio #2
ID : 2
Format : AAC LC
Format/Info : Advanced Audio Codec Low Complexity
Codec ID : mp4a-40-2
Duration : 17 min 4 s
Bit rate mode : Variable
Bit rate : 192 kb/s
Maximum bit rate : 194 kb/s
Channel(s) : 2 channels
Channel layout : L R
Sampling rate : 44.1 kHz
Frame rate : 43.066 FPS (1024 SPF)
Compression mode : Lossy
Stream size : 23.3 MiB (5%)
Default : Yes
Alternate group : 1

Аватара пользователя

aeplug
Санта
Санта
Сообщения: 2698
Зарегистрирован: 18 мар 2016 23:20
Откуда: С Ютуба
Благодарил (а): 18 раз
Поблагодарили: 272 раза

Сообщение aeplug » 20 мар 2021 00:50

YakimAN писал(а):Источник цитаты Frame rate mode : Variable
Frame rate : 29.838 FPS

Не делай так, Адоб не дружит с этим.
Видео уроки для After Effects http://www.youtube.com/AEPlug
Платные консультации по работе в программах


YakimAN
Нуб
Нуб
Сообщения: 4
Зарегистрирован: 19 мар 2021 13:26
Благодарил (а): 2 раза

Сообщение YakimAN » 20 мар 2021 14:41

aeplug, Я это понял, а что посоветуете сделать, как объединить файлы чтобы звук не смещался? Перековертировать со стабильным ФПС не получается тоже сдвиг происходит, может конвертор плохой, пользуюсь AVS


Вернуться в «Adobe Premiere Pro»

Кто сейчас на конференции

Сейчас этот форум просматривают: нет зарегистрированных пользователей